12/1/2021»»Wednesday

The Mandalorian Hd Torrent

12/1/2021
The Mandalorian Hd TorrentThe Mandalorian Hd Torrent

Download the mandalorian Torrents from Our Searched Results, GET the mandalorian Torrent or Magnet via Bittorrent clients. 11 months ago: 3.3 GB: 10187. The Mandalorian travels to a world ruled by a ruthless magistrate who has made a powerful enemy. The Mandalorian Season 1  – welcome to DownloadThe Mandalorian Season 1 torrentTV Series  in HD, Only here in YTSyou will find the latest  Series high quality. The Mandalorian 2X03 Castellano Torrent 8 noviembre, 2020 por descargar Torrent The Mandalorian 2X03, Segunda Temporada 2 Capitulo 3, S02E03 Chapter 11: The Bounty.

Mandalorian S01e01 Torrent

The Mandalorian Hd Torrent

The Mandalorian Free Online

General
Unique ID : 3550071064926872813062868069965526941 (0x2ABB80461CCFD6C685F40203996779D)
Complete name : C:UsersAdministratorVideosThe Mandalorian S01The.Mandalorian.S02E01.Chapter.9.1080p.DSNP.WEBRip.ITA.ENG.DD5.1.x264-BlackBit.mkv
Format : Matroska
Format version : Version 4
File size : 3.58 GiB
Duration : 51 min 48 s
Overall bit rate mode : Variable
Overall bit rate : 9 899 kb/s
Encoded date : UTC 2020-10-30 08:04:16
Writing application : mkvmerge v50.0.0 ('Awakenings') 64-bit
Writing library : libebml v1.4.0 + libmatroska v1.6.2
Anyway : enjoy your star trek kids
Greetz to : BHD staff for being amazing uwu
Hi : pls let me (impragma) back on BTN, I miss it :'(
Video
ID : 1
Format : AVC
Format/Info : Advanced Video Codec
Format profile : [email protected]
Format settings : CABAC / 4 Ref Frames
Format settings, CABAC : Yes
Format settings, Reference : 4 frames
Codec ID : V_MPEG4/ISO/AVC
Duration : 51 min 48 s
Bit rate mode : Variable
Bit rate : 8 489 kb/s
Maximum bit rate : 12.7 Mb/s
Width : 1 920 pixels
Height : 1 080 pixels
Display aspect ratio : 16:9
Frame rate mode : Constant
Frame rate : 23.976 (24000/1001) FPS
Color space : YUV
Chroma subsampling : 4:2:0
Bit depth : 8 bits
Scan type : Progressive
Bits/(Pixel*Frame) : 0.171
Stream size : 3.07 GiB (86%)
Language : English
Default : Yes
Forced : Yes
Color range : Limited
Color primaries : BT.709
Transfer characteristics : BT.709
Matrix coefficients : BT.709
Audio #1
ID : 2
Format : AC-3
Format/Info : Audio Coding 3
Commercial name : Dolby Digital
Codec ID : A_AC3
Duration : 51 min 48 s
Bit rate mode : Constant
Bit rate : 640 kb/s
Channel(s) : 6 channels
Channel layout : L R C LFE Ls Rs
Sampling rate : 48.0 kHz
Frame rate : 31.250 FPS (1536 SPF)
Compression mode : Lossy
Stream size : 237 MiB (6%)
Language : Italian
Service kind : Complete Main
Default : Yes
Forced : Yes
Audio #2
ID : 3
Format : E-AC-3 JOC
Format/Info : Enhanced AC-3 with Joint Object Coding
Commercial name : Dolby Digital Plus with Dolby Atmos
Codec ID : A_EAC3
Duration : 51 min 48 s
Bit rate mode : Constant
Bit rate : 768 kb/s
Channel(s) : 6 channels
Channel layout : L R C LFE Ls Rs
Sampling rate : 48.0 kHz
Frame rate : 31.250 FPS (1536 SPF)
Compression mode : Lossy
Stream size : 285 MiB (8%)
Title : English
Language : English
Service kind : Complete Main
Default : No
Forced : No
Complexity index : 16
Number of dynamic objects : 15
Bed channel count : 1 channel
Bed channel configuration : LFE
Text #1
ID : 4
Format : UTF-8
Codec ID : S_TEXT/UTF8
Codec ID/Info : UTF-8 Plain Text
Duration : 8 min 38 s
Bit rate : 0 b/s
Count of elements : 2
Stream size : 47.0 Bytes (0%)
Language : Italian
Default : Yes
Forced : Yes
Text #2
ID : 5
Format : UTF-8
Codec ID : S_TEXT/UTF8
Codec ID/Info : UTF-8 Plain Text
Duration : 51 min 37 s
Bit rate : 28 b/s
Count of elements : 343
Stream size : 10.7 KiB (0%)
Title : Italiano
Language : Italian
Default : No
Forced : No
Text #3
ID : 6
Format : UTF-8
Codec ID : S_TEXT/UTF8
Codec ID/Info : UTF-8 Plain Text
Duration : 8 min 38 s
Bit rate : 0 b/s
Count of elements : 2
Stream size : 47.0 Bytes (0%)
Title : Italiano (Signs-&-Songs)
Language : Italian
Default : No
Forced : No
Text #4
ID : 7
Format : UTF-8
Codec ID : S_TEXT/UTF8
Codec ID/Info : UTF-8 Plain Text
Duration : 48 min 25 s
Bit rate : 43 b/s
Count of elements : 481
Stream size : 15.4 KiB (0%)
Title : English (CC)
Language : English
Default : No
Forced : No