12/1/2021»»Wednesday

The Mandalorian Hd Torrent

12/1/2021

RELEASE: The.Mandalorian.Sp.WEB.H264-GGWP ViDEO: 3 300 kb/s RESOLUTiON: 1920x1080 RUNTiME: 0 h 45 min AUDiO: 192 kb/s AC-3 6 channels #Silmarillion - To avoid fakes, ALWAYS check that the torrent was added on ExtraTorrents.it by Silmarillion https://ExtraTorrents.it/. Download the mandalorian Torrents from Our Searched Results, GET the mandalorian Torrent or Magnet via Bittorrent clients. 11 months ago: 3.3 GB: 10187. Download the mandalorian Torrents from Our Searched Results, GET the mandalorian Torrent or Magnet via Bittorrent clients. All torrents Anime Applications Games Movies Music TV shows Other Documentaries XXX. 11 months ago: 3.3 GB: 10187: 5115: The Mandalorian S01E05 iNTERNAL 720p WEB H264-AMRAP eztv.

The Mandalorian Hd Torrent Kickass

The Mandalorian 2x06.720p.H264.ita.eng.Ac3-5.1.sub.ita.eng-MIRCrew
Paese Stati Uniti d'America
Anno 2020 – in produzione
Formato webserie
Genere fantascienza
Lingua originale inglese
The Mandalorian è ambientato dopo la caduta dell'Impero e prima del regno di terrore del Primo Ordine. Segue le avventure travagliate di un pistolero solitario nei meandri più reconditi
della galassia, lontano dall'autorità della Nuova Repubblica.
The Mandalorian (also known as Star Wars: The Mandalorian) is an American space western web television series that premiered on Disney+ on November 12, 2019. Set in the Star
Wars universe, the series takes place five years after the events of Return of the Jedi and follows a Mandalorian bounty hunter beyond the reaches of the New Republic.
Pedro Pascal: The Mandalorian
Gina Carano: Cara Dune
Nick Nolte
Giancarlo Esposito
Carl Weathers: Greef Karga
Emily Swallow
Omid Abtahi
Werner Herzog
Taika Waititi: IG-11
Bill Burr
General
Complete name : The Mandalorian 2x06-720p.h264.ita.eng.Ac3 5.1.sub.ita.eng-MIRCrewThe Mandalorian 2x06-720p.h264.ita.eng.Ac3 5.1.sub.ita.eng-MIRCrew.mkv
Format : Matroska
Format version : Version 2
File size : 612 MiB
Duration : 31mn 44s
Overall bit rate : 2 694 Kbps
Movie name : MIRCrew
Encoded date : UTC 2020-12-04T15:39:20Z
Writing application : mkvmerge v5.8.0 ('No Sleep / Pillow') built on Sep 2 2012 15:37:04
Writing library : Lavf55.12.0
Video
ID : 1
Format : AVC
Format/Info : Advanced Video Codec
Format profile : [email protected]
Format settings, CABAC : Yes
Format settings, ReFrames : 4 frames
Codec ID : V_MPEG4/ISO/AVC
Duration : 31mn 44s
Bit rate : 1 873 Kbps
Nominal bit rate : 2 000 Kbps
Width : 1 280 pixels
Height : 544 pixels
Display aspect ratio : 2.35:1
Frame rate : 23.976 fps
Color space : YUV
Chroma subsampling : 4:2:0
Bit depth : 8 bits
Scan type : Progressive
Bits/(Pixel*Frame) : 0.112
Stream size : 425 MiB (70%)
Title : MIRCrew
Writing library : x264 core 142 r2479 dd79a61
Encoding settings : cabac=1 / ref=1 / deblock=1:0:0 / analyse=0x1:0x111 / me=hex / subme=2 / psy=1 / psy_rd=1.00:0.00 / mixed_ref=0 / me_range=16 / chroma_me=1 / trellis=0 / 8x8dct=0 / cqm=0 / deadzone=21,11 / fast_pskip=1 / chroma_qp_offset=0 / threads=9 / lookahead_threads=3 / sliced_threads=0 / nr=0 / decimate=1 / interlaced=0 / bluray_compat=0 / constrained_intra=0 / bframes=3 / b_pyramid=2 / b_adapt=1 / b_bias=0 / direct=1 / weightb=1 / open_gop=0 / weightp=1 / keyint=240 / keyint_min=24 / scenecut=40 / intra_refresh=0 / rc_lookahead=10 / rc=abr / mbtree=1 / bitrate=2000 / ratetol=1.0 / qcomp=0.60 / qpmin=0 / qpmax=69 / qpstep=4 / vbv_maxrate=50000 / vbv_bufsize=62500 / nal_hrd=none / filler=0 / ip_ratio=1.40 / aq=1:1.00
Language : Italian
Default : Yes
Forced : No
Color primaries : BT.709-5, BT.1361, IEC 61966-2-4, SMPTE RP177
Transfer characteristics : BT.709-5, BT.1361
Matrix coefficients : BT.709-5, BT.1361, IEC 61966-2-4 709, SMPTE RP177
Audio #1
ID : 2
Format : AC-3
Format/Info : Audio Coding 3
Mode extension : CM (complete main)
Codec ID : A_AC3
Duration : 31mn 44s
Bit rate mode : Constant
Bit rate : 384 Kbps
Channel(s) : 6 channels
Channel positions : Front: L C R, Side: L R, LFE
Sampling rate : 48.0 KHz
Bit depth : 16 bits
Compression mode : Lossy
Delay relative to video : -5ms
Stream size : 87.2 MiB (14%)
Title : Ita Ac3 5.1
Language : Italian
Default : Yes
Forced : No
Audio #2
ID : 3
Format : AC-3
Format/Info : Audio Coding 3
Mode extension : CM (complete main)
Codec ID : A_AC3
Duration : 31mn 44s
Bit rate mode : Constant
Bit rate : 384 Kbps
Channel(s) : 6 channels
Channel positions : Front: L C R, Side: L R, LFE
Sampling rate : 48.0 KHz
Bit depth : 16 bits
Compression mode : Lossy
Delay relative to video : -5ms
Stream size : 87.2 MiB (14%)
Title : Eng Ac3 5.1
Language : English
Default : No
Forced : No


The Mandalorian Season 2 Torrent

TorrentTorrent#robbyrs -> To avoid fakes, ALWAYS check that the torrent was added on ExtraTorrents.it by robbyrs

Star Wars - Wrath of the Mandalorian The original, un-edited version of this Star Wars fan film.Driven by revenge, Boba Fett has helped The Empire hunt down. Star.Wars.Episode.III.Revenge.Of.The.Sith.2005.2160p.DSNP.WEBRip.x265.10bit.HDR.DTS-HD.MA.6.1-TrollUHD » video movie hd 12 months 21 GB 10 4 Tales by Light S01 PACK 2160p WEBRip-TrollUHD » video tv 4 years 50 GB 2 12 The Mandalorian 1 HD 2160p » video tv 11 months 40 GB 2 12.

https://ExtraTorrents.it/The

The Mandalorian Complete Download Torrent


General
Unique ID : 3550071064926872813062868069965526941 (0x2ABB80461CCFD6C685F40203996779D)
Complete name : C:UsersAdministratorVideosThe Mandalorian S01The.Mandalorian.S02E01.Chapter.9.1080p.DSNP.WEBRip.ITA.ENG.DD5.1.x264-BlackBit.mkv
Format : Matroska
Format version : Version 4
File size : 3.58 GiB
Duration : 51 min 48 s
Overall bit rate mode : Variable
Overall bit rate : 9 899 kb/s
Encoded date : UTC 2020-10-30 08:04:16
Writing application : mkvmerge v50.0.0 ('Awakenings') 64-bit
Writing library : libebml v1.4.0 + libmatroska v1.6.2
Anyway : enjoy your star trek kids
Greetz to : BHD staff for being amazing uwu
Hi : pls let me (impragma) back on BTN, I miss it :'(
Video
ID : 1
Format : AVC
Format/Info : Advanced Video Codec
Format profile : [email protected]
Format settings : CABAC / 4 Ref Frames
Format settings, CABAC : Yes
Format settings, Reference : 4 frames
Codec ID : V_MPEG4/ISO/AVC
Duration : 51 min 48 s
Bit rate mode : Variable
Bit rate : 8 489 kb/s
Maximum bit rate : 12.7 Mb/s
Width : 1 920 pixels
Height : 1 080 pixels
Display aspect ratio : 16:9
Frame rate mode : Constant
Frame rate : 23.976 (24000/1001) FPS
Color space : YUV
Chroma subsampling : 4:2:0
Bit depth : 8 bits
Scan type : Progressive
Bits/(Pixel*Frame) : 0.171
Stream size : 3.07 GiB (86%)
Language : English
Default : Yes
Forced : Yes
Color range : Limited
Color primaries : BT.709
Transfer characteristics : BT.709
Matrix coefficients : BT.709
Audio #1
ID : 2
Format : AC-3
Format/Info : Audio Coding 3
Commercial name : Dolby Digital
Codec ID : A_AC3
Duration : 51 min 48 s
Bit rate mode : Constant
Bit rate : 640 kb/s
Channel(s) : 6 channels
Channel layout : L R C LFE Ls Rs
Sampling rate : 48.0 kHz
Frame rate : 31.250 FPS (1536 SPF)
Compression mode : Lossy
Stream size : 237 MiB (6%)
Language : Italian
Service kind : Complete Main
Default : Yes
Forced : Yes
Audio #2
ID : 3
Format : E-AC-3 JOC
Format/Info : Enhanced AC-3 with Joint Object Coding
Commercial name : Dolby Digital Plus with Dolby Atmos
Codec ID : A_EAC3
Duration : 51 min 48 s
Bit rate mode : Constant
Bit rate : 768 kb/s
Channel(s) : 6 channels
Channel layout : L R C LFE Ls Rs
Sampling rate : 48.0 kHz
Frame rate : 31.250 FPS (1536 SPF)
Compression mode : Lossy
Stream size : 285 MiB (8%)
Title : English
Language : English
Service kind : Complete Main
Default : No
Forced : No
Complexity index : 16
Number of dynamic objects : 15
Bed channel count : 1 channel
Bed channel configuration : LFE
Text #1
ID : 4
Format : UTF-8
Codec ID : S_TEXT/UTF8
Codec ID/Info : UTF-8 Plain Text
Duration : 8 min 38 s
Bit rate : 0 b/s
Count of elements : 2
Stream size : 47.0 Bytes (0%)
Language : Italian
Default : Yes
Forced : Yes
Text #2
ID : 5
Format : UTF-8
Codec ID : S_TEXT/UTF8
Codec ID/Info : UTF-8 Plain Text
Duration : 51 min 37 s
Bit rate : 28 b/s
Count of elements : 343
Stream size : 10.7 KiB (0%)
Title : Italiano
Language : Italian
Default : No
Forced : No
Text #3
ID : 6
Format : UTF-8
Codec ID : S_TEXT/UTF8
Codec ID/Info : UTF-8 Plain Text
Duration : 8 min 38 s
Bit rate : 0 b/s
Count of elements : 2
Stream size : 47.0 Bytes (0%)
Title : Italiano (Signs-&-Songs)
Language : Italian
Default : No
Forced : No
Text #4
ID : 7
Format : UTF-8
Codec ID : S_TEXT/UTF8
Codec ID/Info : UTF-8 Plain Text
Duration : 48 min 25 s
Bit rate : 43 b/s
Count of elements : 481
Stream size : 15.4 KiB (0%)
Title : English (CC)
Language : English
Default : No
Forced : No